+ thuemaychurieng.com »  :::: Dubbed Zone (Dubbed English in Hindi) » TV Shows (Dubbed in Hindi)
|- TrollHunters S01E01 1080p x264 NetFlix Rip Hindi AC3 5.1 - SSX

TrollHunters S01E01 1080p x264 NetFlix Rip Hindi AC3 5.1 - SSX

0 Members and 1 Guest are viewing this topic.

February 15, 2018, 04:53:49 PM
  • *****************
  • Head Admin
  • Legend Member
  • *****
  • Topic Author
  • Thank You: 6072
  • Reputation: 2665
  • Activity:
    100%
  • Country: in
  • Posts: 18062
  • Topics: 10730
  • Join Date: Mar 2012
  • The Time Is Now......


General

Format                                   : Matroska
Format version                           : Version 4 / Version 2
File size                                : 877 MiB
Duration                                 : 23 min 36 s
Overall bit rate                         : 5 191 kb/s
Encoded date                             : UTC 2018-02-15 10:10:22
Writing application                      : mkvmerge v18.0.0 ('Apricity') 32-bit
Writing library                          : libebml v1.3.5 + libmatroska v1.4.8

Video
ID                                       : 1
Format                                   : AVC
Format/Info                              : Advanced Video Codec
Duration                                 : 23 min 36 s
Bit rate                                 : 4 806 kb/s
Width                                    : 1 920 pixels
Height                                   : 1 080 pixels
Display aspect ratio                     : 16:9
Frame rate mode                          : Constant
Frame rate                               : 23.976 (24000/1001) FPS
Color space                              : YUV
Chroma subsampling                       : 4:2:0
Bit depth                                : 8 bits
Scan type                                : Progressive
Bits/(Pixel*Frame)                       : 0.097
Stream size                              : 811 MiB (93%)
Default                                  : Yes
Forced                                   : No

Audio
ID                                       : 2
Format                                   : AC-3
Format/Info                              : Audio Coding 3
Codec ID                                 : A_AC3
Duration                                 : 23 min 36 s
Bit rate mode                            : Constant
Bit rate                                 : 384 kb/s
Channel(s)                               : 6 channels
Channel positions                        : Front: L C R, Side: L R, LFE
Sampling rate                            : 48.0 kHz
Frame rate                               : 31.250 FPS (1536 SPF)
Bit depth                                : 16 bits
Compression mode                         : Lossy
Stream size                              : 64.8 MiB (7%)
Service kind                             : Complete Main
Default                                  : Yes
Forced                                   : No


































Share this topic on FacebookShare this topic on GoogleShare this topic on MySpaceShare this topic on TwitterShare this topic on Yahoo



Thanks given by:


Tags:
 

Related Topics




Back to top